We need more active people on chat! Click me!    Login or Register

NFO File

For 12.Strong.2018.MULTi.TRUEFRENCH.1080p.BluRay.x264

General
Unique ID                      : 158270277079758004098474477377454253218 (0x7711BF20BF5BA458968C4FD04DE6A4A2)
Complete name                  : \12.Strong.2018.MULTi.TRUEFRENCH.1080p.BluRay.x264.AC3-PREUMS.mkv
Format                         : Matroska
Format version                 : Version 4 / Version 2
File size                      : 10.2 GiB
Duration                       : 2 h 9 min
Overall bit rate               : 11.2 Mb/s
Encoded date                   : UTC 2018-05-31 21:53:06
Writing application            : mkvmerge v23.0.0 ('The Bride Said No') 64-bit
Writing library                : libebml v1.3.6 + libmatroska v1.4.9

Video
ID                             : 1
Format                         : AVC
Format/Info                    : Advanced Video Codec
Format profile                 : [email protected]
Format settings, CABAC         : Yes
Format settings, RefFrames     : 5 frames
Codec ID                       : V_MPEG4/ISO/AVC
Duration                       : 2 h 9 min
Bit rate                       : 9 337 kb/s
Width                          : 1 920 pixels
Height                         : 800 pixels
Display aspect ratio           : 2.40:1
Frame rate mode                : Constant
Frame rate                     : 23.976 (24000/1001) FPS
Color space                    : YUV
Chroma subsampling             : 4:2:0
Bit depth                      : 8 bits
Scan type                      : Progressive
Bits/(Pixel*Frame)             : 0.254
Stream size                    : 8.47 GiB (83%)
Writing library                : x264 core 155 r2901 7d0ff22
Encoding settings              : cabac=1 / ref=5 / deblock=1:0:0 / analyse=0x3:0x133 / me=umh / subme=7 / psy=1 / psy_rd=1.00:0.00 / mixed_ref=1 / me_range=16 / chroma_me=1 / trellis=1 / 8x8dct=1 / cqm=0 / deadzone=21,11 / fast_pskip=0 / chroma_qp_offset=-2 / threads=24 / lookahead_threads=4 / sliced_threads=0 / nr=0 / decimate=1 / interlaced=0 / bluray_compat=0 / constrained_intra=0 / bframes=3 / b_pyramid=2 / b_adapt=1 / b_bias=0 / direct=1 / weightb=1 / open_gop=0 / weightp=2 / keyint=250 / keyint_min=23 / scenecut=40 / intra_refresh=0 / rc_lookahead=40 / rc=2pass / mbtree=1 / bitrate=9337 / ratetol=1.0 / qcomp=0.60 / qpmin=0 / qpmax=69 / qpstep=4 / cplxblur=20.0 / qblur=0.5 / ip_ratio=1.40 / aq=1:1.00
Language                       : English
Default                        : Yes
Forced                         : No

Audio #1
ID                             : 2
Format                         : AC-3
Format/Info                    : Audio Coding 3
Format settings, Endianness    : Big
Codec ID                       : A_AC3
Duration                       : 2 h 9 min
Bit rate mode                  : Constant
Bit rate                       : 384 kb/s
Channel(s)                     : 6 channels
Channel positions              : Front: L C R, Side: L R, LFE
Sampling rate                  : 48.0 kHz
Frame rate                     : 31.250 FPS (1536 SPF)
Bit depth                      : 16 bits
Compression mode               : Lossy
Delay relative to video        : 22 ms
Stream size                    : 357 MiB (3%)
Title                          : VFF 5.1
Language                       : French
Service kind                   : Complete Main
Default                        : Yes
Forced                         : No

Audio #2
ID                             : 3
Format                         : DTS
Format/Info                    : Digital Theater Systems
Mode                           : 16
Format settings, Endianness    : Big
Codec ID                       : A_DTS
Duration                       : 2 h 9 min
Bit rate mode                  : Constant
Bit rate                       : 1 509 kb/s
Channel(s)                     : 6 channels
Channel positions              : Front: L C R, Side: L R, LFE
Sampling rate                  : 48.0 kHz
Frame rate                     : 93.750 FPS (512 SPF)
Bit depth                      : 24 bits
Compression mode               : Lossy
Stream size                    : 1.37 GiB (13%)
Title                          : VO DTS
Language                       : English
Default                        : No
Forced                         : No

Text #1
ID                             : 4
Format                         : UTF-8
Codec ID                       : S_TEXT/UTF8
Codec ID/Info                  : UTF-8 Plain Text
Duration                       : 1 h 42 min
Bit rate                       : 2 b/s
Count of elements              : 71
Stream size                    : 1.89 KiB (0%)
Title                          : Forced
Language                       : French
Default                        : Yes
Forced                         : No

Text #2
ID                             : 5
Format                         : UTF-8
Codec ID                       : S_TEXT/UTF8
Codec ID/Info                  : UTF-8 Plain Text
Duration                       : 2 h 8 min
Bit rate                       : 47 b/s
Count of elements              : 1471
Stream size                    : 44.6 KiB (0%)
Title                          : FULL FR
Language                       : French
Default                        : No
Forced                         : No