We need more active people on chat! Click me!    Login or Register

NFO File

For Ready.Player.One.2018.FRENCH.BDRip.XviD-ACOOL

09/07/2018

================================================================================
*                        Fichiers contenus dans le post                        *
================================================================================
Ready.Player.One.2018.FRENCH.BDRip.XviD-ACOOL.avi                       02:19:58
================================================================================
*Duree totale du post .........: 02:19:58                                      *
*Taille totale du post ........: 2.05 Go                                       *
================================================================================

================================================================================
*              Ready.Player.One.2018.FRENCH.BDRip.XviD-ACOOL.avi               *
================================================================================
*Format                        : AVI                                           *
*Format/Info                   : Audio Video Interleave                        *
*Format profile                : OpenDML                                       *
*File size                     : 2.05 GiB                                      *
*Duration                      : 2h 19mn                                       *
*Overall bit rate              : 2 101 Kbps                                    *
*Writing application           : Lavf57.25.100                                 *
*=================================== Video ====================================*
*ID                            : 0                                             *
*Format                        : xvid                                          *
*Codec ID                      : xvid                                          *
*Duration                      : 2h 19mn                                       *
*Bit rate                      : 1 897 Kbps                                    *
*Width                         : 720 pixels                                    *
*Height                        : 300 pixels                                    *
*Display aspect ratio          : 2.40:1                                        *
*Frame rate                    : 23.976 fps                                    *
*Bits/(Pixel*Frame)            : 0.366                                         *
*Stream size                   : 1.85 GiB (90%)                                *
*================================== Audio #1 ==================================*
*ID                            : 1                                             *
*Format                        : MPEG Audio                                    *
*Format version                : Version 1                                     *
*Format profile                : Layer 3                                       *
*Mode                          : Joint stereo                                  *
*Mode extension                : MS Stereo                                     *
*Codec ID                      : 55                                            *
*Codec ID/Hint                 : MP3                                           *
*Duration                      : 2h 19mn                                       *
*Bit rate mode                 : Constant                                      *
*Bit rate                      : 192 Kbps                                      *
*Channel(s)                    : 2 channels                                    *
*Sampling rate                 : 48.0 KHz                                      *
*Compression mode              : Lossy                                         *
*Stream size                   : 192 MiB (9%)                                  *
*Alignment                     : Aligned on interleaves                        *
*Interleave, duration          : 24 ms (0.58 video frame)                      *
*Writing library               : LAME3.99.5                                    *

================================================================================
*                           INFORMATION SUR LE POST                            *
================================================================================
*Taille des donnees sans par2..: 2.05 Go                                       *
*Nombre de rar.................: 32                                            *
*Taille des rar................: 67.02 Mo                                      *
*Par2..........................: 8%                                            *
*Nombre de bloc de recuperation: 230                                           *
*Taille d'un bloc..............: 750.00 Ko                                     *