Login or Register

NFO File

For Femme Fatale - x264 720p

Liens
http://www.imdb.com/title/tt0280665/
http://www.allocine.fr/film/fichefilm_gen_cfilm=34197.html

Sources
Vidéo                            : HDTV allemande, réencodé en x264 10 bits avec MEGui
Audio anglais DTS                : DVD néerlandais, réencodé au format OPUS avec MEGui
Audio français AC3               : DVD français
Sous-titres texte                : scan Vobsub DVD français

Général
Complete name               : Femme Fatale - x264 720p.mkv
Format                      : Matroska
Format version              : Version 4 / Version 2
File size                   : 2.74 GiB
Duration                    : 1 h 49 min
Overall bit rate            : 3 582 kb/s
Encoded date                : UTC 2018-05-26 02:18:50
Writing application         : mkvmerge v22.0.0 ('At The End Of The World') 64-bit
Writing library             : libebml v1.3.5 + libmatroska v1.4.8

Video
ID                          : 1
Format                      : AVC
Format/Info                 : Advanced Video Codec
Format profile              : High [email protected]
Format settings             : CABAC / 16 Ref Frames
Format settings, CABAC      : Yes
Format settings, ReFrames   : 16 frames
Codec ID                    : V_MPEG4/ISO/AVC
Duration                    : 1 h 49 min
Bit rate                    : 2 985 kb/s
Width                       : 1 280 pixels
Height                      : 720 pixels
Display aspect ratio        : 16:9
Frame rate mode             : Constant
Frame rate                  : 25.000 FPS
Color space                 : YUV
Chroma subsampling          : 4:2:0
Bit depth                   : 10 bits
Scan type                   : Progressive
Bits/(Pixel*Frame)          : 0.130
Stream size                 : 2.28 GiB (83%)
Writing library             : x264 core 155 r2901 7d0ff22
Encoding settings           : cabac=1 / ref=16 / deblock=1:0:0 / analyse=0x3:0x133 / me=umh / subme=10 / psy=1 / psy_rd=1.00:0.00 / mixed_ref=1 / me_range=24 / chroma_me=1 / trellis=2 / 8x8dct=1 / cqm=0 / deadzone=21,11 / fast_pskip=1 / chroma_qp_offset=-2 / threads=12 / lookahead_threads=2 / sliced_threads=0 / nr=0 / decimate=1 / interlaced=0 / bluray_compat=0 / constrained_intra=0 / bframes=8 / b_pyramid=2 / b_adapt=2 / b_bias=0 / direct=3 / weightb=1 / open_gop=0 / weightp=2 / keyint=250 / keyint_min=25 / scenecut=40 / intra_refresh=0 / rc_lookahead=60 / rc=crf / mbtree=1 / crf=19.5 / qcomp=0.60 / qpmin=0 / qpmax=69 / qpstep=4 / ip_ratio=1.40 / aq=1:1.00
Default                     : Yes
Forced                      : No

Audio #1
ID                          : 2
Format                      : AC-3
Format/Info                 : Audio Coding 3
Codec ID                    : A_AC3
Duration                    : 1 h 49 min
Bit rate mode               : Constant
Bit rate                    : 384 kb/s
Channel(s)                  : 6 channels
Channel positions           : Front: L C R, Side: L R, LFE
Sampling rate               : 48.0 kHz
Frame rate                  : 31.250 FPS (1536 SPF)
Bit depth                   : 16 bits
Compression mode            : Lossy
Delay relative to video     : 28 ms
Stream size                 : 301 MiB (11%)
Title                       : AC3 5.1 @ 384 kbps
Language                    : French
Service kind                : Complete Main
Default                     : Yes
Forced                      : No

Audio #2
ID                          : 3
Format                      : Opus
Codec ID                    : A_OPUS
Duration                    : 1 h 49 min
Bit rate                    : 211 kb/s
Channel(s)                  : 6 channels
Channel positions           : Front: L C R, Rear: L R, LFE
Sampling rate               : 48.0 kHz
Frame rate                  : 50.000 FPS (960 SPF)
Compression mode            : Lossy
Stream size                 : 165 MiB (6%)
Title                       : Opus 5.1 @250 kbps
Language                    : English
Default                     : No
Forced                      : No

Text
ID                          : 4
Format                      : UTF-8
Codec ID                    : S_TEXT/UTF8
Codec ID/Info               : UTF-8 Plain Text
Duration                    : 1 h 47 min
Bit rate                    : 22 b/s
Count of elements           : 584
Stream size                 : 17.8 KiB (0%)
Title                       : French subs
Language                    : French
Default                     : No
Forced                      : No