We need more active people on chat! Click me!    Login or Register

NFO File

For Rocky.Mountain.Mystery.1935

Rocky.Mountain.Mystery.1935.WebDL-NGP

1h 3min | Mystery, Western | 1 March 1935 (USA)
https://www.imdb.com/title/tt0025939/

The heirs of the dying owner of a valuable radium mine are being murdered as
a mining engineer tries to unccover the killer and clear his cousin's name.

Director: Charles Barton
Writers: Edward E. Paramore Jr. (screenplay), Ethel Doherty (adaptation) | Zane Grey (novel)
Stars: Randolph Scott, Charles 'Chic' Sale, Mrs. Leslie Carter

Note: VHSrip quality

Format                                   : MPEG-4
Format profile                           : Base Media / Version 2
Codec ID                                 : mp42
File size                                : 369 MiB
Duration                                 : 1h 5mn
Overall bit rate mode                    : Variable
Overall bit rate                         : 787 Kbps
Encoded date                             : UTC 2012-02-03 11:22:29

Video
ID                                       : 1
Format                                   : AVC
Format/Info                              : Advanced Video Codec
Format profile                           : [email protected]
Format settings, CABAC                   : Yes
Format settings, ReFrames                : 3 frames
Codec ID                                 : avc1
Codec ID/Info                            : Advanced Video Coding
Duration                                 : 1h 5mn
Bit rate                                 : 594 Kbps
Width                                    : 720 pixels
Height                                   : 540 pixels
Display aspect ratio                     : 4:3
Frame rate mode                          : Constant
Frame rate                               : 29.970 fps
Standard                                 : NTSC
Color space                              : YUV
Chroma subsampling                       : 4:2:0
Bit depth                                : 8 bits
Scan type                                : Progressive
Bits/(Pixel*Frame)                       : 0.051
Stream size                              : 278 MiB (75%)
Language                                 : English

Audio
ID                                       : 2
Format                                   : AAC
Format/Info                              : Advanced Audio Codec
Format profile                           : LC
Codec ID                                 : 40
Duration                                 : 1h 5mn
Source duration                          : 1h 5mn
Bit rate mode                            : Variable
Bit rate                                 : 192 Kbps
Maximum bit rate                         : 236 Kbps
Channel(s)                               : 2 channels
Channel positions                        : Front: L R
Sampling rate                            : 48.0 KHz
Compression mode                         : Lossy
Stream size                              : 88.7 MiB (24%)
Source stream size                       : 88.7 MiB (24%)
Language                                 : English