Login or Register

NFO File

For The.Guernsey.literary.2018.FRENCH.CAM.MD.CAM.XViD-MOBIDIK

General
Complete name                  : E:\The.Guernsey.literary.2018.FRENCH.CAM.MD.CAM.XViD-MOBIDIK.avi
Format                         : AVI
Format/Info                    : Audio Video Interleave
File size                      : 700 MiB
Duration                       : 1 h 57 min
Overall bit rate               : 1 192 kb/s
Movie name                     : The Guernsey Literary And Potato Peel Pie Society
Writing application            : Lavf56.9.100

Video
ID                             : 0
Format                         : MPEG-4 Visual
Format profile                 : Advanced [email protected]
Format settings, BVOP          : 1
Format settings, QPel          : No
Format settings, GMC           : No warppoints
Format settings, Matrix        : Default (MPEG)
Muxing mode                    : Packed bitstream
Codec ID                       : XVID
Codec ID/Hint                  : XviD
Duration                       : 1 h 57 min
Bit rate                       : 1 069 kb/s
Width                          : 720 pixels
Height                         : 388 pixels
Display aspect ratio           : 2.34:1
Frame rate                     : 23.976 FPS
Color space                    : YUV
Chroma subsampling             : 4:2:0
Bit depth                      : 8 bits
Scan type                      : Progressive
Compression mode               : Lossy
Bits/(Pixel*Frame)             : 0.194
Stream size                    : 810 MiB (88%)
Writing library                : XviD 64

Audio
ID                             : 1
Format                         : MPEG Audio
Format version                 : Version 1
Format profile                 : Layer 3
Mode                           : Joint stereo
Mode extension                 : MS Stereo
Codec ID                       : 55
Codec ID/Hint                  : MP3
Duration                       : 1 h 57 min
Bit rate mode                  : Constant
Bit rate                       : 128 kb/s
Channel(s)                     : 2 channels
Sampling rate                  : 48.0 kHz
Compression mode               : Lossy
Stream size                    : 78.3 MiB (11%)
Alignment                      : Aligned on interleaves
Interleave, duration           : 24  ms (0.58 video frame)
Writing library                : LAME3.98.2