We need more active people on chat! Click me!    Login or Register

NFO File

For Les.Aventures.de.Spirou.et.Fantasio.2018.FRENCH.HDRip.XviD-FuN

General
Complete name                  : E:\Les.Aventures.de.Spirou.et.Fantasio.2018.FRENCH.HDRip.XviD-FuN.avi
Format                         : AVI
Format/Info                    : Audio Video Interleave
File size                      : 701 MiB
Duration                       : 1 h 28 min
Overall bit rate               : 1 189 kb/s
Movie name                     : Sparring
Writing application            : Lavf56.9.100

Video
ID                             : 0
Format                         : MPEG-4 Visual
Format profile                 : Advanced [email protected]
Format settings, BVOP          : 1
Format settings, QPel          : No
Format settings, GMC           : No warppoints
Format settings, Matrix        : Default (MPEG)
Muxing mode                    : Packed bitstream
Codec ID                       : XVID
Codec ID/Hint                  : XviD
Duration                       : 1 h 28 min
Bit rate                       : 1 016 kb/s
Width                          : 720 pixels
Height                         : 302 pixels
Display aspect ratio           : 2.40:1
Frame rate                     : 24.000 FPS
Color space                    : YUV
Chroma subsampling             : 4:2:0
Bit depth                      : 8 bits
Scan type                      : Progressive
Compression mode               : Lossy
Bits/(Pixel*Frame)             : 0.194
Stream size                    : 615 MiB (88%)
Writing library                : XviD 64

Audio
ID                             : 1
Format                         : MPEG Audio
Format version                 : Version 1
Format profile                 : Layer 3
Mode                           : Joint stereo
Mode extension                 : MS Stereo
Codec ID                       : 55
Codec ID/Hint                  : MP3
Duration                       : 1 h 28 min
Bit rate mode                  : Constant
Bit rate                       : 128 kb/s
Channel(s)                     : 2 channels
Sampling rate                  : 48.0 kHz
Compression mode               : Lossy
Stream size                    : 78.3 MiB (11%)
Alignment                      : Aligned on interleaves
Interleave, duration           : 24  ms (0.58 video frame)
Writing library                : LAME3.98.2