We need more active people on chat! Click me!    Login or Register

NFO File

For Color.Me.Dead.1969

https://www.imdb.com/title/tt0064176/

A man discovers that he has been deliberately poisoned and hasn't long to live. In the short time he has left, he determines to find out who poisoned him and why. 

Note: Couldn't locate SUBS, upload if you have them.

Format                      : AVI
Format/Info                 : Audio Video Interleave
File size                   : 702 MiB
Duration                    : 1 h 36 min
Overall bit rate mode       : Variable
Overall bit rate            : 1 014 kb/s
Writing application         : VirtualDubMod 1.5.10.2 (build 2540/release)
Writing library             : VirtualDubMod build 2540/release

Video
ID                          : 0
Format                      : MPEG-4 Visual
Format profile              : [email protected]
Format settings, BVOP       : 2
Format settings, QPel       : No
Format settings, GMC        : No warppoints
Format settings, Matrix     : Default (H.263)
Muxing mode                 : Packed bitstream
Codec ID                    : XVID
Codec ID/Hint               : XviD
Duration                    : 1 h 36 min
Bit rate                    : 864 kb/s
Width                       : 640 pixels
Height                      : 480 pixels
Display aspect ratio        : 4:3
Frame rate                  : 29.970 (30000/1001) FPS
Color space                 : YUV
Chroma subsampling          : 4:2:0
Bit depth                   : 8 bits
Scan type                   : Progressive
Compression mode            : Lossy
Bits/(Pixel*Frame)          : 0.094
Stream size                 : 598 MiB (85%)
Writing library             : XviD 1.0.3 (UTC 2004-12-20)

Audio
ID                          : 1
Format                      : MPEG Audio
Format version              : Version 1
Format profile              : Layer 3
Mode                        : Joint stereo
Mode extension              : MS Stereo
Codec ID                    : 55
Codec ID/Hint               : MP3
Duration                    : 1 h 36 min
Bit rate mode               : Variable
Bit rate                    : 136 kb/s
Nominal bit rate            : 128 kb/s
Channel(s)                  : 2 channels
Sampling rate               : 48.0 kHz
Compression mode            : Lossy
Stream size                 : 94.3 MiB (13%)
Alignment                   : Aligned on interleaves
Interleave, duration        : 24  ms (0.72 video frame)
Interleave, preload duratio : 425  ms
Writing library             : LAME3.90.
Encoding settings           : -m j -V 4 -q 2 -lowpass 17.6 --abr 128