Login or Register

NFO File

For Les.Aventures.de.Spirou.et.Fantasio.2018.FRENCH.TS.x264-UNiKORN

General
Complete name : E:\Les.Aventures.de.Spirou.et.Fantasio.2018.FRENCH.TS.x264-UNiKORN.mkv
Format : Matroska
Format version : Version 4 / Version 2
File size : 1.10 GiB
Duration : 1 h 27 min
Overall bit rate : 1 108 kb/s
Writing application : HandBrake 0.9.1
Writing library : libmkv 0.6.1.2

Video
ID : 1
Format : AVC
Format/Info : Advanced Video Codec
Format profile : [email protected]
Format settings, CABAC : Yes
Format settings, ReFrames : 3 frames
Codec ID : V_MPEG4/ISO/AVC
Duration : 1 h 27 min
Bit rate : 789 kb/s
Width : 720 pixels
Height : 320 pixels
Display aspect ratio : 2.25:1
Frame rate mode : Constant
Frame rate : 29.964 (30000/1001) FPS
Color space : YUV
Chroma subsampling : 4:2:0
Bit depth : 8 bits
Scan typ : Progressive
Bits/(Pixel*Frame) : 0.217
Stream size : 599 MiB (82%)
Default : Yes
Forced : No
Color range : Full
Matrix coefficients : BT.709
 
Audio
ID  : 2
Format : AAC
Format/Info : Advanced Audio Codec
Format profile : LC
Codec ID : A_AAC
Duration : 1 h 27 min
Bit rate : 162 kb/s
Channel(s) : 2 channels
Channel positions : Front: L R
Sampling rate : 48.0 kHz
Frame rate : 46.875 FPS (1024 SPF)
Compression mode : Lossy
Stream size : 88.9 MiB (18%)
Language : French
Default  : Yes
Forced : Yes