We need more active people on chat! Click me!    Login or Register

NFO File

For Les.Aventures.de.Spirou.et.Fantasio.2018.FRENCH.TS.XviD-SCREEN

General
Complete name                  : D:\Aventures de Spirou & Fantasio\Les.Aventures.de.Spirou.et.Fantasio.2018.FRENCH.TS.XviD-SCREEN.avi
Format                         : AVI
Format/Info                    : Audio Video Interleave
File size                      : 1.37 GiB
Duration                       : 1 h 27 min
Overall bit rate               : 1 674 Kbps
Writing application            : VirtualDubMod 1.5.10.2 (build 2540/release)
Writing library                : VirtualDubMod build 2540/release

Video
ID                             : 0
Format                         : MPEG-4 Visual
Format profile                 : Advanced [email protected]
Format settings, BVOP          : 2
Format settings, QPel          : No
Format settings, GMC           : No warppoints
Format settings, Matrix        : Default (MPEG)
Codec ID                       : XVID
Codec ID/Hint                  : XviD
Duration                       : 1 h 27 min
Bit rate                       : 1 489 Kbps
Width                          : 720 pixels
Height                         : 334 pixels
Display aspect ratio           : 2.500
Frame rate                     : 24.968 (25000/1001) FPS
Color space                    : YUV
Chroma subsampling             : 4:2:0
Bit depth                      : 8 bits
Scan type                      : Progressive
Compression mode               : Lossy
Bits/(Pixel*Frame)             : 0.340
Stream size                    : 1.33 GiB (91%)
Writing library                : XviD 67

Audio
ID                             : 1
Format                         : MPEG Audio
Codec ID                       : 55
Codec ID/Hint                  : MP3
Duration                       : 1 h 27 min
it rate mode                   : Constant
Bit rate                       : 128 kb/s
Channel(s)                     : 2 channels
Sampling rate                  : 48.0 kHz
Compression mode               : Lossy
Delay relative to video        : 4 ms
Stream size                    : 117 MiB (8%)
Alignment                      : Split accross interleaves
Interleave, duration           : 33  ms (1.00 video frame)