Login or Register

NFO File

For Je.Vais.Mieux.2018.FRENCH.TS.MD.XViD-SCREEN

General
Complete name                  : .\Je.Vais.Mieux.2018.FRENCH.TS.MD.XViD-SCREEN.avi
Format                         : AVI
Format/Info                    : Audio Video Interleave
File size                      : 1.22 GiB
Duration                       : 1 h 20 min
Overall bit rate               : 1 293 kb/s
Writing application            : VirtualDubMod 1.5.10.2 (build 2540/release)
Writing library                : VirtualDubMod build 2540/release

Video
ID                             : 0
Format                         : MPEG-4 Visual
Format profile                 : Advanced [email protected]
Format settings, BVOP          : 2
Format settings, QPel          : No
Format settings, GMC           : No warppoints
Format settings, Matrix        : Default (MPEG)
Codec ID                       : XVID
Codec ID/Hint                  : XviD
Duration                       : 1 h 20 min
Bit rate                       : 1 154 kbps
Width                          : 702 pixels
Height                         : 408 pixels
Display aspect ratio           : 2.35:1
Frame rate                     : 24.000 (24000/1001) FPS
Color space                    : YUV
Chroma subsampling             : 2.35:1
Bit depth                      : 8 bits
Scan type                      : Progressive
Compression mode               : Lossy
Bits/(Pixel*Frame)             : 0.369
Stream size                    : 1.17 GiB (90%)
Writing library                : XviD 1.2.1 (UTC 2008-12-04)

Audio
ID                             : 1
Format                         : MPEG Audio
Codec ID                       : 55
Codec ID/Hint                  : MP3
Duration                       : 1 h 20 min
Bit rate                       : 128 kb/s
Channel(s)                     : 2 channels
Sampling rate                  : 48.0 kHz
Compression mode               : Lossy
Stream size                    : 200 MiB (17%)
Alignment                      : Split accross interleaves
Interleave, duration           : 34  ms (1.01 video frame)
Interleave, preload duration   : 500  ms