Login or Register

NFO File

For 12.Strong.2018.TRUEFRENCH.BDRip.XviD-PREUMS

General
Complete name                  : E:\12.Strong.2018.TRUEFRENCH.BDRip.XviD-PREUMS.avi
Format                         : AVI
Format/Info                    : Audio Video Interleave
File size                      : 1.35 GiB
Duration                       : 2 h 9 min
Overall bit rate               : 1 492 kb/s
Movie name                     : by PREUMS
Writing application            : Lavf56.40.101
Writing library                : VirtualDub build 35491/release

Video
ID                             : 0
Format                         : MPEG-4 Visual
Format profile                 : Advanced [email protected]
Format settings, BVOP          : 2
Format settings, QPel          : No
Format settings, GMC           : No warppoints
Format settings, Matrix        : Default (H.263)
Muxing mode                    : Packed bitstream
Codec ID                       : XVID
Codec ID/Hint                  : XviD
Duration                       : 2 h 9 min
Bit rate                       : 1 355 kb/s
Width                          : 720 pixels
Height                         : 300 pixels
Display aspect ratio           : 2.40:1
Frame rate                     : 23.976 (24000/1001) FPS
Color space                    : YUV
Chroma subsampling             : 4:2:0
Bit depth                      : 8 bits
Scan type                      : Progressive
Compression mode               : Lossy
Bits/(Pixel*Frame)             : 0.262
Stream size                    : 1.23 GiB (91%)
Writing library                : XviD 67

Audio
ID                             : 1
Format                         : MPEG Audio
Format version                 : Version 1
Format profile                 : Layer 3
Mode                           : Joint stereo
Mode extension                 : MS Stereo
Codec ID                       : 55
Codec ID/Hint                  : MP3
Duration                       : 2 h 9 min
Bit rate mode                  : Constant
Bit rate                       : 128 kb/s
Channel(s)                     : 2 channels
Sampling rate                  : 48.0 kHz
Compression mode               : Lossy
Stream size                    : 119 MiB (9%)
Alignment                      : Split accross interleaves
Interleave, duration           : 42  ms (1.00 video frame)
Interleave, preload duration   : 500  ms