We need more active people on chat! Click me!    Login or Register

NFO File

For Hailey Dean Mystery: 2 + 2 = Murder.2018-NoGroup

2.2.Murder.2o18.720p

Mystery | TV Movie 3 June 2018
https://www.imdb.com/title/tt7946586/

Hailey attends her niece's school recital only to learn that the beloved 
music teacher has vanished. Hailey soon discovers several startling 
secrets amongst the staff, as well as a link ... 

Director: Michael Robison
Stars: Kellie Martin, Giacomo Baessato, Samantha Cole, Ellen Ewusie 

Hailey.Dean.Mystery.22Murder.2018.720p.HDTV.X264.Solar
Format                                   : MPEG-4
Format profile                           : Base Media / Version 2
Codec ID                                 : mp42
File size                                : 961 MiB
Duration                                 : 1h 24mn
Overall bit rate mode                    : Variable
Overall bit rate                         : 1 585 Kbps
Encoded date                             : UTC 2018-06-04 04:25:50
Tagged date                              : UTC 2018-06-04 04:25:50
Writing application                      : HandBrake 1.1.0 2018040700

Video
ID                                       : 1
Format                                   : AVC
Format/Info                              : Advanced Video Codec
Format profile                           : [email protected]
Format settings, CABAC                   : Yes
Format settings, ReFrames                : 9 frames
Codec ID                                 : avc1
Codec ID/Info                            : Advanced Video Coding
Duration                                 : 1h 24mn
Bit rate                                 : 1 450 Kbps
Width                                    : 1 280 pixels
Height                                   : 720 pixels
Display aspect ratio                     : 16:9
Frame rate mode                          : Constant
Frame rate                               : 29.970 fps
Color space                              : YUV
Chroma subsampling                       : 4:2:0
Bit depth                                : 8 bits
Scan type                                : Progressive
Bits/(Pixel*Frame)                       : 0.052
Stream size                              : 879 MiB (91%)
Writing library                          : x264 core 155 r2893 b00bcaf
Encoded date                             : UTC 2018-06-04 04:25:50
Tagged date                              : UTC 2018-06-04 04:25:50
Color primaries                          : BT.709
Transfer characteristics                 : BT.709
Matrix coefficients                      : BT.709

Audio
ID                                       : 2
Format                                   : AAC
Format/Info                              : Advanced Audio Codec
Format profile                           : LC
Codec ID                                 : 40
Duration                                 : 1h 24mn
Bit rate mode                            : Variable
Bit rate                                 : 128 Kbps
Channel(s)                               : 2 channels
Channel positions                        : Front: L R
Sampling rate                            : 48.0 KHz
Compression mode                         : Lossy
Delay relative to video                  : 67ms
Stream size                              : 77.9 MiB (8%)
Title                                    : Stereo
Language                                 : English