Login or Register

NFO File

For 24.Hours.To.Live.2017.TRUEFRENCH.720p.BluRay.x264-UTT

General
Unique ID                                : 190265503287912874820520308003354087234 (0x8F23CD927F1DDF759B0D93B0F4468F42)
Complete name                            : \24.Hours.To.Live.2017.TRUEFRENCH.720p.BluRay.DTS.x264-UTT.mkv
Format                                   : Matroska
Format version                           : Version 4 / Version 2
File size                                : 4.37 GiB
Duration                                 : 1 h 33 min
Overall bit rate mode                    : Variable
Overall bit rate                         : 6 724 kb/s
Encoded date                             : UTC 2018-05-15 19:25:14
Writing application                      : mkvmerge v20.0.0 ('I Am The Sun') 32-bit
Writing library                          : libebml v1.3.5 + libmatroska v1.4.8
Video
ID                                       : 1
Format                                   : AVC
Format/Info                              : Advanced Video Codec
Format profile                           : [email protected]
Format settings, CABAC                   : Yes
Format settings, RefFrames               : 4 frames
Codec ID                                 : V_MPEG4/ISO/AVC
Duration                                 : 1 h 33 min
Bit rate mode                            : Variable
Bit rate                                 : 5 215 kb/s
Maximum bit rate                         : 40.0 Mb/s
Width                                    : 1 280 pixels
Height                                   : 532 pixels
Display aspect ratio                     : 2.40:1
Frame rate mode                          : Constant
Frame rate                               : 24.000 FPS
Color space                              : YUV
Chroma subsampling                       : 4:2:0
Bit depth                                : 8 bits
Scan type                                : Progressive
Bits/(Pixel*Frame)                       : 0.319
Stream size                              : 3.39 GiB (78%)
Writing library                          : x264 core 148 r2665 a01e339
Encoding settings                        : cabac=1 / ref=5 / deblock=1:-1:-1 / analyse=0x3:0x113 / me=umh / subme=7 / psy=1 / psy_rd=1.00:0.15 / mixed_ref=1 / me_range=16 / chroma_me=1 / trellis=1 / 8x8dct=1 / cqm=0 / deadzone=21,11 / fast_pskip=1 / chroma_qp_offset=-3 / threads=12 / lookahead_threads=2 / sliced_threads=0 / slices=4 / nr=0 / decimate=1 / interlaced=0 / bluray_compat=1 / constrained_intra=0 / bframes=3 / b_pyramid=1 / b_adapt=1 / b_bias=0 / direct=1 / weightb=1 / open_gop=1 / weightp=1 / keyint=240 / keyint_min=1 / scenecut=40 / intra_refresh=0 / rc_lookahead=40 / rc=2pass / mbtree=1 / bitrate=5215 / ratetol=1.0 / qcomp=0.60 / qpmin=0 / qpmax=69 / qpstep=4 / cplxblur=20.0 / qblur=0.5 / vbv_maxrate=40000 / vbv_bufsize=30000 / nal_hrd=vbr / filler=0 / ip_ratio=1.40 / aq=1:1.00
Default                                  : Yes
Forced                                   : No
Color range                              : Limited
Color primaries                          : BT.709
Transfer characteristics                 : BT.709
Matrix coefficients                      : BT.709
Audio
ID                                       : 2
Format                                   : DTS
Format/Info                              : Digital Theater Systems
Mode                                     : 16
Format settings, Endianness              : Big
Codec ID                                 : A_DTS
Duration                                 : 1 h 33 min
Bit rate mode                            : Constant
Bit rate                                 : 1 509 kb/s
Channel(s)                               : 6 channels
Channel positions                        : Front: L C R, Side: L R, LFE
Sampling rate                            : 48.0 kHz
Frame rate                               : 93.750 FPS (512 SPF)
Bit depth                                : 16 bits
Compression mode                         : Lossy
Stream size                              : 1 005 MiB (22%)
Language                                 : French
Default                                  : Yes
Forced                                   : No
Text
ID                                       : 3
Format                                   : UTF-8
Codec ID                                 : S_TEXT/UTF8
Codec ID/Info                            : UTF-8 Plain Text
Duration                                 : 1 h 5 min
Bit rate                                 : 0 b/s
Count of elements                        : 18
Stream size                              : 355 Bytes (0%)
Title                                    : Fr Forced
Language                                 : French
Default                                  : Yes
Forced                                   : No
Menu
00:00:00.000                             : fr:(01)00:00:00:000
00:05:15.916                             : fr:(02)00:05:15:916
00:14:02.291                             : fr:(03)00:14:02:291
00:19:17.583                             : fr:(04)00:19:17:583
00:25:37.500                             : fr:(05)00:25:37:500
00:36:21.666                             : fr:(06)00:36:21:666
00:40:59.666                             : fr:(07)00:40:59:666
00:47:23.750                             : fr:(08)00:47:23:750
00:57:54.625                             : fr:(09)00:57:54:625
01:06:26.125                             : fr:(10)01:06:26:125
01:12:12.416                             : fr:(11)01:12:12:416
01:18:50.875                             : fr:(12)01:18:50:875