We need more active people on chat! Click me!    Login or Register

NFO File

For Hostiles.2017.720p.BluRay.H264.AAC-RARBG

H0st1l3s.2o17.m720p

2h 14min | Adventure, Drama, Western | 26 January 2018 (USA) 
https://www.imdb.com/title/tt5478478/ 
Rating: 7.2/10 - 28,473 votes

In 1892, a legendary Army captain reluctantly agrees to escort a 
Cheyenne chief and his family through dangerous territory. 

Includes English .srt subs
Hardcoded English for the Cheyenne spoken parts

Hostiles.2017.720p.BluRay.H264.AAC-RARBG
Format                                   : MPEG-4
Format profile                           : Base Media
Codec ID                                 : isom
File size                                : 1.62 GiB
Duration                                 : 2h 14mn
Overall bit rate                         : 1 729 Kbps
Encoded date                             : UTC 2018-04-17 03:32:12
Tagged date                              : UTC 2018-04-17 03:32:12
Writing application                      : Lavf57.83.100

Video
ID                                       : 1
Format                                   : AVC
Format/Info                              : Advanced Video Codec
Format profile                           : [email protected]
Format settings, CABAC                   : Yes
Format settings, ReFrames                : 4 frames
Codec ID                                 : avc1
Codec ID/Info                            : Advanced Video Coding
Duration                                 : 2h 14mn
Bit rate                                 : 1 500 Kbps
Width                                    : 1 280 pixels
Height                                   : 536 pixels
Display aspect ratio                     : 2.40:1
Frame rate mode                          : Constant
Frame rate                               : 23.976 fps
Color space                              : YUV
Chroma subsampling                       : 4:2:0
Bit depth                                : 8 bits
Scan type                                : Progressive
Bits/(Pixel*Frame)                       : 0.091
Stream size                              : 1.41 GiB (87%)
Writing library                          : x264 core 152 r2851M ba24899
Encoded date                             : UTC 2018-04-17 03:32:12
Tagged date                              : UTC 2018-04-17 03:32:12

Audio
ID                                       : 2
Format                                   : AAC
Format/Info                              : Advanced Audio Codec
Format profile                           : LC
Codec ID                                 : 40
Duration                                 : 2h 14mn
Bit rate mode                            : Constant
Bit rate                                 : 224 Kbps
Channel(s)                               : 6 channels
Channel positions                        : Front: L C R, Side: L R, LFE
Sampling rate                            : 48.0 KHz
Compression mode                         : Lossy
Delay relative to video                  : 83ms
Stream size                              : 215 MiB (13%)
Language                                 : English
Encoded date                             : UTC 2018-04-17 03:32:12
Tagged date                              : UTC 2018-04-17 03:32:12