Login or Register

NFO File

For L.Apparition.2018.FRENCH.1080p.WEB.H264-PREUMS

General
Unique ID                      : 276517197292443253194284756604343721472 (0xD00746690B719DA73D3D2BB4D2429E00)
Complete name                  : .:\L.Apparition.2018.FRENCH.1080p.WEB.H264-PREUMS.mkv
Format                         : Matroska
Format version                 : Version 4 / Version 2
File size                      : 4.77 GiB
Duration                       : 2 h 17 min
Overall bit rate               : 4 954 kb/s
Movie name                     : PREUMS
Encoded date                   : UTC 2018-06-15 18:27:56
Writing application            : mkvmerge v24.0.0 ('Beyond The Pale') 64-bit
Writing library                : libebml v1.3.6 + libmatroska v1.4.9

Video
ID                             : 1
Format                         : AVC
Format/Info                    : Advanced Video Codec
Format profile                 : [email protected]
Format settings, CABAC         : Yes
Format settings, RefFrames     : 5 frames
Codec ID                       : V_MPEG4/ISO/AVC
Duration                       : 2 h 17 min
Bit rate                       : 4 568 kb/s
Width                          : 1 912 pixels
Height                         : 800 pixels
Display aspect ratio           : 2.40:1
Frame rate mode                : Constant
Frame rate                     : 25.000 FPS
Color space                    : YUV
Chroma subsampling             : 4:2:0
Bit depth                      : 8 bits
Scan type                      : Progressive
Bits/(Pixel*Frame)             : 0.119
Stream size                    : 4.40 GiB (92%)
Title                          : PREUMS
Language                       : French
Default                        : Yes
Forced                         : No
Color range                    : Limited
Color primaries                : BT.709
Transfer characteristics       : BT.709
Matrix coefficients            : BT.709

Audio
ID                             : 2
Format                         : AC-3
Format/Info                    : Audio Coding 3
Format settings, Endianness    : Big
Codec ID                       : A_AC3
Duration                       : 2 h 17 min
Bit rate mode                  : Constant
Bit rate                       : 384 kb/s
Channel(s)                     : 6 channels
Channel positions              : Front: L C R, Side: L R, LFE
Sampling rate                  : 48.0 kHz
Frame rate                     : 31.250 FPS (1536 SPF)
Bit depth                      : 16 bits
Compression mode               : Lossy
Stream size                    : 379 MiB (8%)
Title                          : VF 5.1
Language                       : French
Service kind                   : Complete Main
Default                        : Yes
Forced                         : No

Menu
00:00:00.000                   : en:Chapitre 01
00:13:00.000                   : en:Chapitre 02
00:26:00.000                   : en:Chapitre 03
00:39:00.000                   : en:Chapitre 04
00:52:00.000                   : en:Chapitre 05
01:05:00.000                   : en:Chapitre 06
01:18:00.000                   : en:Chapitre 07
01:31:00.000                   : en:Chapitre 08
01:44:00.000                   : en:Chapitre 09
01:57:00.000                   : en:Chapitre 10