We need more active people on chat! Click me!    Login or Register

NFO File

For Diablo.2015.1080p.WEB-DL.DD5.1.H264-FGT

http://www.imdb.com/title/tt4076760/

General           : Diablo.2015.1080p.WEB-DL.DD5.1.H264-FGT.mkv

Format            : Matroska at 4 821 Kbps
Length            : 2.80 GiB for 1h 23mn 11s 450ms

Video #0          : AVC at 4 341 Kbps
Aspect            : 1912 x 796 (2.402) at 23.976 fps

Audio #0          : AC-3 at 384 Kbps
Infos             : 6 channels, 48.0 KHz
Language          : English

Subtitles         : English Forced (muxed in & optional)
                    English Forced (srt file)


[URL=http://imagecurl.com/viewer.php?file=57070497730201532981.png][IMG]http://imagecurl.com/images/57070497730201532981_thumb.png[/IMG][/URL]
[URL=http://imagecurl.com/viewer.php?file=80006555561141707781.png][IMG]http://imagecurl.com/images/80006555561141707781_thumb.png[/IMG][/URL]
[URL=http://imagecurl.com/viewer.php?file=82569482080569908853.png][IMG]http://imagecurl.com/images/82569482080569908853_thumb.png[/IMG][/URL]
[URL=http://imagecurl.com/viewer.php?file=06617516622505196654.png][IMG]http://imagecurl.com/images/06617516622505196654_thumb.png[/IMG][/URL]
[URL=http://imagecurl.com/viewer.php?file=48483575580157909928.png][IMG]http://imagecurl.com/images/48483575580157909928_thumb.png[/IMG][/URL]
[URL=http://imagecurl.com/viewer.php?file=64967561056260061704.png][IMG]http://imagecurl.com/images/64967561056260061704_thumb.png[/IMG][/URL]



[mediainfo]
Video
ID                                       : 1
Format                                   : AVC
Format/Info                              : Advanced Video Codec
Format profile                           : [email protected]
Format settings, CABAC                   : Yes
Format settings, ReFrames                : 5 frames
Codec ID                                 : V_MPEG4/ISO/AVC
Duration                                 : 1h 23mn
Bit rate                                 : 4 341 Kbps
Width                                    : 1 912 pixels
Height                                   : 796 pixels
Display aspect ratio                     : 2.40:1
Frame rate mode                          : Constant
Frame rate                               : 23.976 fps
Color space                              : YUV
Chroma subsampling                       : 4:2:0
Bit depth                                : 8 bits
Scan type                                : Progressive
Bits/(Pixel*Frame)                       : 0.119
Stream size                              : 2.52 GiB (90%)
Title                                    : Diablo.2015.1080p.WEB-DL.DD5.1.H264-FGT
Language                                 : English
Default                                  : Yes
Forced                                   : No
Color range                              : Limited
Color primaries                          : BT.709
Transfer characteristics                 : BT.709
Matrix coefficients                      : BT.709

Audio
ID                                       : 2
Format                                   : AC-3
Format/Info                              : Audio Coding 3
Mode extension                           : CM (complete main)
Format settings, Endianness              : Big
Codec ID                                 : A_AC3
Duration                                 : 1h 23mn
Bit rate mode                            : Constant
Bit rate                                 : 384 Kbps
Channel(s)                               : 6 channels
Channel positions                        : Front: L C R, Side: L R, LFE
Sampling rate                            : 48.0 KHz
Frame rate                               : 31.250 fps (1536 spf)
Compression mode                         : Lossy
Stream size                              : 228 MiB (8%)
Title                                    : Diablo.2015.1080p.WEB-DL.DD5.1.H264-FGT
Language                                 : English
Default                                  : Yes
Forced                                   : No

Text
ID                                       : 3
Format                                   : UTF-8
Codec ID                                 : S_TEXT/UTF8
Codec ID/Info                            : UTF-8 Plain Text
Title                                    : English-FORCED
Language                                 : English
Default                                  : Yes
Forced                                   : Yes

Menu
00:00:00.000                             : en:Chapter 1
00:06:42.000                             : en:Chapter 2
00:14:20.000                             : en:Chapter 3
00:21:40.000                             : en:Chapter 4
00:29:00.000                             : en:Chapter 5
00:36:09.000                             : en:Chapter 6
00:41:55.000                             : en:Chapter 7
00:51:05.000                             : en:Chapter 8
00:57:53.000                             : en:Chapter 9
01:03:19.000                             : en:Chapter 10
01:10:00.000                             : en:Chapter 11
01:17:27.000                             : en:Chapter 12



[/mediainfo]