Login or Register

NFO File

For Beverly.Hills.Cop.1984

Beverly.Hills.Cop.1984.720p.BrRip.x264-YIFY

Action | Comedy | Crime  -  5 December 1984 (USA)
http://www.imdb.com/title/tt0086960/
Ratings: 7.3/10 from 104,383 users  

A freewheeling Detroit cop pursuing a murder investigation finds himself 
dealing with the very different culture of Beverly Hills.

Director: Martin Brest
Writers: Daniel Petrie Jr. (screenplay), Danilo Bach (story), 1 more credit ยป
Stars: Eddie Murphy, Judge Reinhold, John Ashton

Video: 1280x720 x264 micro-720p
Audio: English AAC 2ch
Subs: English .srt file

Format                                   : MPEG-4
Format profile                           : Base Media
Codec ID                                 : isom
File size                                : 751 MiB
Duration                                 : 1h 45mn
Overall bit rate mode                    : Variable
Overall bit rate                         : 1 000 Kbps
Encoded date                             : UTC 2012-08-14 07:32:05
Tagged date                              : UTC 2012-08-14 07:32:05

Video
ID                                       : 1
Format                                   : AVC
Format/Info                              : Advanced Video Codec
Format profile                           : [email protected]
Format settings, CABAC                   : Yes
Format settings, ReFrames                : 9 frames
Codec ID                                 : avc1
Codec ID/Info                            : Advanced Video Coding
Duration                                 : 1h 45mn
Bit rate                                 : 904 Kbps
Maximum bit rate                         : 7 338 Kbps
Width                                    : 1 280 pixels
Height                                   : 720 pixels
Display aspect ratio                     : 16:9
Frame rate mode                          : Constant
Frame rate                               : 23.976 fps
Color space                              : YUV
Chroma subsampling                       : 4:2:0
Bit depth                                : 8 bits
Scan type                                : Progressive
Bits/(Pixel*Frame)                       : 0.041
Stream size                              : 679 MiB (90%)
Writing library                          : x264 core 125 r2200 999b753
Encoded date                             : UTC 2012-08-14 07:32:05
Tagged date                              : UTC 2012-08-14 07:32:14

Audio
ID                                       : 2
Format                                   : AAC
Format/Info                              : Advanced Audio Codec
Format profile                           : LC
Codec ID                                 : 40
Duration                                 : 1h 45mn
Bit rate mode                            : Variable
Bit rate                                 : 92.0 Kbps
Maximum bit rate                         : 102 Kbps
Channel(s)                               : 2 channels
Channel positions                        : Front: L R
Sampling rate                            : 48.0 KHz
Compression mode                         : Lossy
Stream size                              : 69.1 MiB (9%)
Language                                 : English
Encoded date                             : UTC 2012-08-14 07:32:12
Tagged date                              : UTC 2012-08-14 07:32:14