Login or Register

NFO File

For Fighting Back 1982 WebRip XviD-CG

Fighting Back 1982 WebRip XviD-CG

AKA: Death Vengeance

Action, Crime, Drama | 21 May 1982 (USA)
http://www.imdb.com/title/tt0083936/

It's a hard crime story about a Philadelphia shop owner who has had enough of 
the criminals' violences and ravages. He organizes a patrol of civil people. 
It all starts to go wrong because his team's actions are taken as racial 
discrimination ... 

Director: Lewis Teague
Writers: Thomas Hedley Jr. (as Tom Hedley), David Zelag Goodman (as David Z. Goodman)
Stars: Tom Skerritt, Patti LuPone, Michael Sarrazin 

Note: This is a Full screen (4:3) version, IMDB lists it as Widescreen.
No subs found.  See Sample !

Format                                   : AVI
Format/Info                              : Audio Video Interleave
File size                                : 1.46 GiB
Duration                                 : 1h 36mn
Overall bit rate                         : 2 173 Kbps
Writing application                      : VirtualDubMod 1.5.4.1 (build 2178/release)
Writing library                          : VirtualDubMod build 2178/release

Video
ID                                       : 0
Format                                   : MPEG-4 Visual
Format profile                           : Advanced [email protected]
Format settings, BVOP                    : 1
Format settings, QPel                    : No
Format settings, GMC                     : No warppoints
Format settings, Matrix                  : Custom
Codec ID                                 : XVID
Codec ID/Hint                            : XviD
Duration                                 : 1h 36mn
Bit rate                                 : 1 974 Kbps
Width                                    : 720 pixels
Height                                   : 544 pixels
Display aspect ratio                     : 4:3
Frame rate                               : 23.976 fps
Color space                              : YUV
Chroma subsampling                       : 4:2:0
Bit depth                                : 8 bits
Scan type                                : Progressive
Compression mode                         : Lossy
Bits/(Pixel*Frame)                       : 0.210
Stream size                              : 1.32 GiB (91%)
Writing library                          : XviD 1.2.1 (UTC 2008-12-04)

Audio
ID                                       : 1
Format                                   : MPEG Audio
Format version                           : Version 1
Format profile                           : Layer 3
Mode                                     : Joint stereo
Mode extension                           : MS Stereo
Codec ID                                 : 55
Codec ID/Hint                            : MP3
Duration                                 : 1h 36mn
Bit rate mode                            : Constant
Bit rate                                 : 192 Kbps
Channel(s)                               : 2 channels
Sampling rate                            : 48.0 KHz
Compression mode                         : Lossy
Stream size                              : 132 MiB (9%)
Alignment                                : Aligned on interleaves
Interleave, duration                     : 83 ms (2.00 video frames)
Interleave, preload duration             : 504 ms
Writing library                          : LAME3.98r