Login or Register

NFO File

For Sniper.Special.Ops.2016.DVDRip.XviD.AC3-EVO

[URL=http://imagecurl.com/viewer.php?file=92759463361590338200.png][IMG]http://imagecurl.com/images/92759463361590338200_thumb.png[/IMG][/URL]
[URL=http://imagecurl.com/viewer.php?file=10352950382706529418.png][IMG]http://imagecurl.com/images/10352950382706529418_thumb.png[/IMG][/URL]
[URL=http://imagecurl.com/viewer.php?file=83619785143766337395.png][IMG]http://imagecurl.com/images/83619785143766337395_thumb.png[/IMG][/URL]
[URL=http://imagecurl.com/viewer.php?file=75775855227793665737.png][IMG]http://imagecurl.com/images/75775855227793665737_thumb.png[/IMG][/URL]
[URL=http://imagecurl.com/viewer.php?file=33537720771572110305.png][IMG]http://imagecurl.com/images/33537720771572110305_thumb.png[/IMG][/URL]
[URL=http://imagecurl.com/viewer.php?file=04251944015294933613.png][IMG]http://imagecurl.com/images/04251944015294933613_thumb.png[/IMG][/URL]



[mediainfo]
Video
ID                                       : 0
Format                                   : MPEG-4 Visual
Format profile                           : Advanced [email protected]
Format settings, BVOP                    : 2
Format settings, QPel                    : No
Format settings, GMC                     : No warppoints
Format settings, Matrix                  : Default (H.263)
Muxing mode                              : Packed bitstream
Codec ID                                 : XVID
Codec ID/Hint                            : XviD
Duration                                 : 1h 26mn
Bit rate                                 : 1 796 Kbps
Width                                    : 720 pixels
Height                                   : 400 pixels
Display aspect ratio                     : 16:9
Frame rate                               : 23.976 (24000/1001) fps
Color space                              : YUV
Chroma subsampling                       : 4:2:0
Bit depth                                : 8 bits
Scan type                                : Progressive
Compression mode                         : Lossy
Bits/(Pixel*Frame)                       : 0.260
Stream size                              : 1.08 GiB (80%)
Writing library                          : XviD 66

Audio
ID                                       : 1
Format                                   : AC-3
Format/Info                              : Audio Coding 3
Mode extension                           : CM (complete main)
Format settings, Endianness              : Big
Codec ID                                 : 2000
Duration                                 : 1h 26mn
Bit rate mode                            : Constant
Bit rate                                 : 448 Kbps
Channel(s)                               : 6 channels
Channel positions                        : Front: L C R, Side: L R, LFE
Sampling rate                            : 48.0 KHz
Frame rate                               : 31.250 fps (1536 spf)
Compression mode                         : Lossy
Stream size                              : 277 MiB (20%)
Alignment                                : Split accross interleaves
Interleave, duration                     : 42 ms (1.00 video frame)
Interleave, preload duration             : 500 ms



[/mediainfo]