Login or Register

NFO File

For Belle.Et.Sebastien.3.Le.Dernier.Chapitre.2018.FRENCH.1080p.BluRay.DTS-HDMA.x264-EXTREME F yEnc

General
Unique ID                                : 320225088816031813674441981999516342179 (0xF0E91BD7019CE329608D51E624B1D7A3)
Complete name                            : \Belle.Et.Sebastien.3.Le.Dernier.Chapitre.2018.FRENCH.1080p.BluRay.DTS-HDMA.x264-EXTREME.mkv
Format                                   : Matroska
Format version                           : Version 2
File size                                : 8.45 GiB
Duration                                 : 1 h 31 min
Overall bit rate                         : 13.2 Mb/s
Encoded date                             : UTC 2018-06-14 17:58:46
Writing application                      : mkvmerge v19.0.0 ('Brave Captain') 64-bit
Writing library                          : libebml v1.3.5 + libmatroska v1.4.8
Video
ID                                       : 1
Format                                   : AVC
Format/Info                              : Advanced Video Codec
Format profile                           : [email protected]
Format settings, CABAC                   : Yes
Format settings, RefFrames               : 5 frames
Codec ID                                 : V_MPEG4/ISO/AVC
Duration                                 : 1 h 31 min
Bit rate                                 : 10.4 Mb/s
Width                                    : 1 920 pixels
Height                                   : 804 pixels
Display aspect ratio                     : 2.40:1
Frame rate mode                          : Constant
Frame rate                               : 24.000 FPS
Color space                              : YUV
Chroma subsampling                       : 4:2:0
Bit depth                                : 8 bits
Scan type                                : Progressive
Bits/(Pixel*Frame)                       : 0.281
Stream size                              : 6.65 GiB (79%)
Writing library                          : x264 core 155 r2901 7d0ff22
Encoding settings                        : cabac=1 / ref=5 / deblock=1:-2:-2 / analyse=0x3:0x113 / me=hex / subme=7 / psy=1 / psy_rd=1.05:0.15 / mixed_ref=1 / me_range=16 / chroma_me=1 / trellis=1 / 8x8dct=1 / cqm=0 / deadzone=21,11 / fast_pskip=1 / chroma_qp_offset=-3 / threads=24 / lookahead_threads=4 / sliced_threads=0 / nr=0 / decimate=0 / interlaced=0 / bluray_compat=0 / constrained_intra=0 / bframes=3 / b_pyramid=2 / b_adapt=1 / b_bias=0 / direct=1 / weightb=1 / open_gop=0 / weightp=2 / keyint=240 / keyint_min=24 / scenecut=40 / intra_refresh=0 / rc_lookahead=40 / rc=2pass / mbtree=1 / bitrate=10407 / ratetol=1.0 / qcomp=0.65 / qpmin=0 / qpmax=69 / qpstep=4 / cplxblur=20.0 / qblur=0.5 / vbv_maxrate=50000 / vbv_bufsize=50000 / nal_hrd=none / filler=0 / ip_ratio=1.40 / aq=1:1.00
Language                                 : English
Default                                  : Yes
Forced                                   : No
Audio
ID                                       : 2
Format                                   : DTS
Format/Info                              : Digital Theater Systems
Format profile                           : MA / Core
Mode                                     : 16
Format settings, Endianness              : Big
Codec ID                                 : A_DTS
Duration                                 : 1 h 31 min
Bit rate mode                            : Variable / Constant
Bit rate                                 : 2 810 kb/s / 1 509 kb/s
Channel(s)                               : 6 channels
Channel positions                        : Front: L C R, Side: L R, LFE
Sampling rate                            : 48.0 kHz
Frame rate                               : 93.750 FPS (512 SPF)
Bit depth                                : 24 bits
Compression mode                         : Lossless / Lossy
Stream size                              : 1.80 GiB (21%)
Language                                 : French
Default                                  : Yes
Forced                                   : No
Menu
00:00:00.000                             : en:00:00:00.000
00:04:16.333                             : en:00:04:16.333
00:08:40.375                             : en:00:08:40.375
00:12:23.042                             : en:00:12:23.042
00:17:45.083                             : en:00:17:45.083
00:21:59.708                             : en:00:21:59.708
00:26:48.500                             : en:00:26:48.500
00:31:17.417                             : en:00:31:17.417
00:36:54.708                             : en:00:36:54.708
00:42:05.167                             : en:00:42:05.167
00:46:47.625                             : en:00:46:47.625
00:51:21.792                             : en:00:51:21.792
00:55:53.625                             : en:00:55:53.625
01:00:16.167                             : en:01:00:16.167
01:04:51.500                             : en:01:04:51.500
01:07:42.083                             : en:01:07:42.083
01:11:57.708                             : en:01:11:57.708
01:16:36.417                             : en:01:16:36.417
01:22:15.708                             : en:01:22:15.708
01:26:40.250                             : en:01:26:40.250