We need more active people on chat! Click me!    Login or Register

NFO File

For Sparring.2018.FRENCH.720p.WEB.H264-PREUMS

General
Unique ID                      : 239338018991936607248289602420795551768 (0xB40ED3650D724B439A43044A4FDCB018)
Complete name                  : E:\Sparring.2018.FRENCH.720p.WEB.H264-PREUMS.mkv
Format                         : Matroska
Format version                 : Version 4 / Version 2
File size                      : 1.44 GiB
Duration                       : 1 h 34 min
Overall bit rate               : 2 185 kb/s
Movie name                     : Sparring 720p by PREUMS
Encoded date                   : UTC 2018-06-07 20:13:01
Writing application            : DVDFab 10.0.6.0
Writing library                : libebml v1.3.4 + libmatroska v1.4.5

Video
ID                             : 1
Format                         : AVC
Format/Info                    : Advanced Video Codec
Format profile                 : [email protected]
Format settings, CABAC         : Yes
Format settings, RefFrames     : 3 frames
Codec ID                       : V_MPEG4/ISO/AVC
Duration                       : 1 h 34 min
Bit rate                       : 1 800 kb/s
Width                          : 1 280 pixels
Height                         : 532 pixels
Display aspect ratio           : 2.40:1
Frame rate mode                : Constant
Frame rate                     : 23.976 (24000/1001) FPS
Color space                    : YUV
Chroma subsampling             : 4:2:0
Bit depth                      : 8 bits
Scan type                      : Progressive
Bits/(Pixel*Frame)             : 0.110
Stream size                    : 1.19 GiB (82%)
Writing library                : x264 core 148
Encoding settings              : cabac=1 / ref=3 / deblock=1:-1:-1 / analyse=0x3:0 / me=hex / subme=5 / psy=1 / psy_rd=1.00:0.00 / mixed_ref=0 / me_range=16 / chroma_me=1 / trellis=1 / 8x8dct=1 / cqm=0 / deadzone=21,11 / fast_pskip=0 / chroma_qp_offset=0 / threads=16 / lookahead_threads=4 / sliced_threads=0 / nr=0 / decimate=1 / interlaced=0 / bluray_compat=0 / constrained_intra=0 / bframes=2 / b_pyramid=0 / b_adapt=1 / b_bias=0 / direct=1 / weightb=0 / open_gop=0 / weightp=0 / keyint=24 / keyint_min=2 / scenecut=40 / intra_refresh=0 / rc=2pass / mbtree=0 / bitrate=1800 / ratetol=1.0 / qcomp=0.60 / qpmin=0 / qpmax=69 / qpstep=4 / cplxblur=20.0 / qblur=0.5 / ip_ratio=1.40 / pb_ratio=1.30 / aq=1:1.00
Default                        : Yes
Forced                         : No
Color range                    : Limited
Color primaries                : BT.709
Transfer characteristics       : BT.709
Matrix coefficients            : BT.709

Audio
ID                             : 2
Format                         : AC-3
Format/Info                    : Audio Coding 3
Format settings, Endianness    : Big
Codec ID                       : A_AC3
Duration                       : 1 h 34 min
Bit rate mode                  : Constant
Bit rate                       : 384 kb/s
Channel(s)                     : 6 channels
Channel positions              : Front: L C R, Side: L R, LFE
Sampling rate                  : 48.0 kHz
Frame rate                     : 31.250 FPS (1536 SPF)
Bit depth                      : 16 bits
Compression mode               : Lossy
Stream size                    : 260 MiB (18%)
Language                       : French
Service kind                   : Complete Main
Default                        : Yes
Forced                         : No

Menu
00:00:00.000                   : en:Chapitre 01
00:07:35.705                   : en:Chapitre 02
00:13:54.500                   : en:Chapitre 03
00:20:58.507                   : en:Chapitre 04
00:33:37.933                   : en:Chapitre 05
00:40:35.058                   : en:Chapitre 06
00:49:13.868                   : en:Chapitre 07
00:56:32.765                   : en:Chapitre 08
01:06:47.421                   : en:Chapitre 09
01:13:03.713                   : en:Chapitre 10
01:19:17.461                   : en:Chapitre 11
01:27:48.472                   : en:Chapitre 12