Login or Register

NFO File

For Robinson.Crusoe.2016.1080p.WEB-DL.DD5.1.H264-FGT Repost

The Wild Life (2016)
Robinson Crusoe (original title)

http://www.imdb.com/title/tt4731008/

General           : Robinson.Crusoe.2016.1080p.WEB-DL.DD5.1.H264-FGT.mkv
Format            : Matroska at 4 861 Kbps
Length            : 3.07 GiB for 1h 30mn 22s 209ms

Video #0          : AVC at 4 380 Kbps
Aspect            : 1920 x 796 (2.412) at 24.000 fps

Audio #0          : AC-3 at 384 Kbps
Infos             : 6 channels, 48.0 KHz
Language          : English

Subtitles         : None

Notes             : My original post failed


[URL=http://imagecurl.com/viewer.php?file=60741043329987919854.png][IMG]http://imagecurl.com/images/60741043329987919854_thumb.png[/IMG][/URL]
[URL=http://imagecurl.com/viewer.php?file=55655383900712747087.png][IMG]http://imagecurl.com/images/55655383900712747087_thumb.png[/IMG][/URL]
[URL=http://imagecurl.com/viewer.php?file=04009882167080230066.png][IMG]http://imagecurl.com/images/04009882167080230066_thumb.png[/IMG][/URL]
[URL=http://imagecurl.com/viewer.php?file=25064957393354092560.png][IMG]http://imagecurl.com/images/25064957393354092560_thumb.png[/IMG][/URL]
[URL=http://imagecurl.com/viewer.php?file=34223990204161604933.png][IMG]http://imagecurl.com/images/34223990204161604933_thumb.png[/IMG][/URL]
[URL=http://imagecurl.com/viewer.php?file=03963752960022581981.png][IMG]http://imagecurl.com/images/03963752960022581981_thumb.png[/IMG][/URL]



[mediainfo]
Video
ID                                       : 1
Format                                   : AVC
Format/Info                              : Advanced Video Codec
Format profile                           : [email protected]
Format settings, CABAC                   : Yes
Format settings, ReFrames                : 5 frames
Codec ID                                 : V_MPEG4/ISO/AVC
Duration                                 : 1h 30mn
Bit rate                                 : 4 380 Kbps
Width                                    : 1 920 pixels
Height                                   : 796 pixels
Display aspect ratio                     : 2.40:1
Frame rate mode                          : Constant
Frame rate                               : 24.000 fps
Color space                              : YUV
Chroma subsampling                       : 4:2:0
Bit depth                                : 8 bits
Scan type                                : Progressive
Bits/(Pixel*Frame)                       : 0.119
Stream size                              : 2.77 GiB (90%)
Title                                    : Robinson.Crusoe.2016.1080p.WEB-DL.DD5.1.H264-FGT
Language                                 : English
Default                                  : Yes
Forced                                   : No
Color range                              : Limited
Color primaries                          : BT.709
Transfer characteristics                 : BT.709
Matrix coefficients                      : BT.709

Audio
ID                                       : 2
Format                                   : AC-3
Format/Info                              : Audio Coding 3
Mode extension                           : CM (complete main)
Format settings, Endianness              : Big
Codec ID                                 : A_AC3
Duration                                 : 1h 30mn
Bit rate mode                            : Constant
Bit rate                                 : 384 Kbps
Channel(s)                               : 6 channels
Channel positions                        : Front: L C R, Side: L R, LFE
Sampling rate                            : 48.0 KHz
Frame rate                               : 31.250 fps (1536 spf)
Compression mode                         : Lossy
Stream size                              : 248 MiB (8%)
Title                                    : Robinson.Crusoe.2016.1080p.WEB-DL.DD5.1.H264-FGT
Language                                 : English
Default                                  : Yes
Forced                                   : No



[/mediainfo]