Free usenet access, grab now!!!     Login or Register

NFO File

For Escape.Plan.2.Hades.2018.DVDRip.XviD.AC3-EVO

Escape.Plan.2.Hades.2018.DVDRip.XviD.AC3-EVO

Genres:	Action , Thriller
Actors:	Dave Bautista , Baylee Curran , Sylvester Stallone , Jaime King , Wes Chatham , Titus Welliver , Jesse Metcalfe , 50 Cent , Vincent Young ,
Lydia Hull , Ashley Cusato , Zeeko Zaki , Xiaoming Huang , Ming Xi , Alphonso A'Qen-Aten Jackson
Plot:	Ray Breslin manages an elite team of security specialists trained in the art of breaking people out of the world's most impenetrable prisons. When his most trusted
operative| Shu Ren| is kidnapped and disappears inside the most elaborate prison ever built| entirely computerized and constantly changing shape| Ray must track him
down with the help of some of his former friends
Language: English
IMDB: http://imdb.com/title/tt6513656/

MediaInfo:

Video
ID                                       : 0
Format                                   : MPEG-4 Visual
Format profile                           : [email protected]
Format settings, BVOP                    : No
Format settings, QPel                    : No
Format settings, GMC                     : No warppoints
Format settings, Matrix                  : Default (H.263)
Codec ID                                 : XVID
Codec ID/Hint                            : XviD
Duration                                 : 1 h 33 min
Source duration                          : 1 h 33 min
Bit rate                                 : 1 515 kb/s
Width                                    : 720 pixels
Height                                   : 304 pixels
Display aspect ratio                     : 2.35:1
Frame rate                               : 23.976 (24000/1001) FPS
Color space                              : YUV
Chroma subsampling                       : 4:2:0
Bit depth                                : 8 bits
Scan type                                : Progressive
Compression mode                         : Lossy
Bits/(Pixel*Frame)                       : 0.289
Stream size                              : 1 014 MiB (77%)
Writing library                          : XviD 1.1.2 (UTC 2006-11-01)

Audio
ID                                       : 1
Format                                   : AC-3
Format/Info                              : Audio Coding 3
Codec ID                                 : 2000
Duration                                 : 1 h 33 min
Bit rate mode                            : Constant
Bit rate                                 : 448 kb/s
Channel(s)                               : 6 channels
Channel positions                        : Front: L C R, Side: L R, LFE
Sampling rate                            : 48.0 kHz
Frame rate                               : 31.250 FPS (1536 SPF)
Bit depth                                : 16 bits
Compression mode                         : Lossy
Stream size                              : 300 MiB (23%)
Alignment                                : Aligned on interleaves
Interleave, duration                     : 32  ms (0.77 video frame)
Service kind                             : Complete Main