We need more active people on chat! Click me!    Login or Register

NFO File

For 12.Strong.2018.FRENCH.HDRip.XviD-ACOOL

General
Complete name                  : 12.Strong.2018.FRENCH.HDRip.XviD-ACOOL.avi
Format                         : AVI
Format/Info                    : Audio Video Interleave
Format profile                 : OpenDML
File size                      : 1.37 GiB
Duration                       : 2 h 9 min
Overall bit rate               : 1 508 kb/s
Writing application            : Lavf57.25.100

Video
ID                             : 0
Format                         : MPEG-4 Visual
Format profile                 : [email protected]
Format settings, BVOP          : No
Format settings, QPel          : No
Format settings, GMC           : No warppoints
Format settings, Matrix        : Default (H.263)
Codec ID                       : XVID
Codec ID/Hint                  : XviD
Duration                       : 2 h 9 min
Bit rate                       : 1 301 kb/s
Width                          : 720 pixels
Height                         : 300 pixels
Display aspect ratio           : 2.40:1
Frame rate                     : 23.976 (24000/1001) FPS
Color space                    : YUV
Chroma subsampling             : 4:2:0
Bit depth                      : 8 bits
Scan type                      : Progressive
Compression mode               : Lossy
Bits/(Pixel*Frame)             : 0.251
Stream size                    : 1.18 GiB (86%)
Writing library                : XviD 64

Audio
ID                             : 1
Format                         : MPEG Audio
Format version                 : Version 1
Format profile                 : Layer 3
Codec ID                       : 55
Codec ID/Hint                  : MP3
Duration                       : 2 h 9 min
Bit rate mode                  : Constant
Bit rate                       : 192 kb/s
Channel(s)                     : 2 channels
Sampling rate                  : 48.0 kHz
Compression mode               : Lossy
Stream size                    : 178 MiB (13%)
Alignment                      : Aligned on interleaves
Interleave, duration           : 24  ms (0.58 video frame)
Interleave, preload duration   : 24  ms
Writing library                : LAME3.98.2